Torrent Search | Torrent Meta Search | Widgets

Battle For The Planet Of The Apes (1973) BRRip

       
709.05 Mb
found 3 years ago
▲ seeders: 4 ▼ leechers:1
your vote:
real:
fake:

Battle for the Planet of the Apes

1973 · 93 min · 5.5/10 (19k votes) in imdb
Science Fiction
The final chapter in the incredible Apes saga. The most suspenseful showdown ever filmed as two civilizations battle for the right to inherit what's left of the earth!
Director: J. Lee Thompson
The fifth and final episode in the Planet of the Apes series. After the collapse of human civilization, a community of intelligent apes led by Caesar lives in harmony with a group of humans. Gorilla General Aldo tries to cause an ape civil war and a community of human mutants who live beneath a destroyed city try to conquer those whom they perceive as enemies. All leading to the finale.
THANK YOU
download torrent
  Direct Downloadsponsored

Battle For The Planet Of The Apes (1973) BRRip torrent

Information about the torrent Battle For The Planet Of The Apes (1973) BRRip. Seeders, leechers and torrent status is updated several times per day.

If you want to download the hdrip torrent Battle For The Planet Of The Apes (1973) BRRip you will need a torrent client.

Torrent Metasearch.

.

tracker
seeders
leechers
↓ torrent client compatible list

↑ hide torrent client compatible list

reviews
140
torrent contents

Battle For The Planet Of The Apes 1973 BRRip torrent

Battle For The Planet Of The Apes 1973 BRRip
Battle For The Planet Of The Apes 1973 BRRip - zeberzee.mp4699.43 Mb torrent search
Battle For The Planet Of The Apes 1973 BRRip sample.m4v9.57 Mb torrent search
Battle.For.The.Planet.Of.The.Apes.1973sub42.24 Kb torrent search

Sample info:
Duration: 01:36:26.57, start: 0.000000, bitrate: 1013 kb/s
Stream #0.0	: Video: h264 (High), yuv420p, 720x304 [PAR 1:1 DAR 45:19], 881 kb/s, 23.98 fps, 23.98 tbr, 24k tbn, 47.95 tbc
creation_time	: 2011-08-16 12:25:45
Stream #0.1	: Audio: aac, 48000 Hz, stereo, s16, 127 kb/s
creation_time	: 2011-08-16 12:27:34
screenshots
Battle For The Planet torrent screenshot 207BC8F004CF71659B30FFE7730988D95FD472C2 Battle For The Planet  torrent screenshot 207bc8f004cf71659b30ffe7730988d95fd472c2 torrent Battle For The Planet
Images are auto generated please report any inapropriate images
you may be interested in these torrents seeders leechers size found
Pinky and the Brain     23 9 17.27 Gb 3 years ago

Animaniacs - S1E15 - Pinky And The Brain - Battle for the Planet.avi Animaniacs - S1E18 - Pinky And The Brain


Battle For The Planet of The Apes (1973)     17 3 700.63 Mb 2 years ago

Battle.For.The.Planet.of.The.Apes.1973.720p.BRrip.x264.GAZ.YIFY.mp4 Battle.For.The.Pla


Battle For The Planet of the Apes (1973) 1080p     10 4 1.1 Gb 2 years ago

Battle.For.The.Planet.of.the.Apes.1973.1080p.BrRip.x264.BOKUTOX.YIFY.mp4 WWW.


Season 1     8 3 5.49 Gb 3 years ago

01. De-Zanitized - The Monkey Song - Nighty-Night Toon.mkv 02. Yakko's World - Cookies for Einstein - Win Big.


Planet of the Apes 1 2 3 4 5 6 7 Heptalogy Sci Fi Eng H264 7 3 4.46 Gb 1 year ago

PA2front.jpg PA3front.jpg PA4front.jpg


Battle For The Planet Of The Apes (1973) 1080p BluRay H264 AAC RARBG 6 5 1.65 Gb 3 months ago

Battle.For.The.Planet.Of.The.Apes.1973.1080p.BluRay.H264.AAC-RARBG.mp4


COLEÇÃO PLA D MACACOS (1968) à (1973) br 6 3 3.34 Gb 2 years ago

1 - O Planeta dos Macacos (The Planet of the Apes -1968) DUBLADO.mp4


Battle for the Planet of the Apes (1973) 1080p 4 2 2.63 Gb 8 months ago

Battle for the Planet of the Apes (1973) 1080p.Molpol.mkv Battle for the Planet


Planet Of The Apes Legacy Collection 4 3 4.2 Gb 4 years ago

01 - Planet Of The Apes.avi 02 - Beneath The Planet Of The Apes.avi 03 - Escape


 

related search cloud

 battle  apes  planet  brrip  sample  zeberzee