Torrent Search | Torrent Meta Search | Widgets

Farscape Season 1 4+The Peacekeeper Wars Part 1&2

       
30.02 Gb
found 4 years ago
▲ seeders: 75 ▼ leechers:109
your vote:
real:
fake:
THANK YOU
download torrent
  Direct Downloadsponsored

Farscape Season 1 4+The Peacekeeper Wars Part 1&2 torrent

Information about the torrent Farscape Season 1 4+The Peacekeeper Wars Part 1&2. Seeders, leechers and torrent status is updated everyday.

If you want to download the tv torrent Farscape Season 1 4+The Peacekeeper Wars Part 1&2 you will need a torrent client.

Torrent Metasearch.

Torrent verified by isohunt.com.

tracker
seeders
leechers
↓ torrent client compatible list

↑ hide torrent client compatible list

reviews
140
torrent contents

Farscape - Season 1-4+The.Peacekeeper.Wars.Part.1&2 torrent

Farscape - Season 1-4+The.Peacekeeper.Wars.Part.1&2
 Farscape - Season 1
Farscape - S01E01 - Premiere.avi349.97 Mb torrent search
Farscape - S01E02 - I, E.T..avi327.54 Mb torrent search
Farscape - S01E03 - Exodus From Genesis.avi336.34 Mb torrent search
Farscape - S01E04 - Throne For A Loss.avi327.84 Mb torrent search
Farscape - S01E05 - Back and Back and Back to the Future.avi327.36 Mb torrent search
Farscape - S01E06 - Thank God Its Friday, Again.avi327.08 Mb torrent search
Farscape - S01E07 - PK Tech Girl.avi325.77 Mb torrent search
Farscape - S01E08 - That Old Black Magic.avi327.04 Mb torrent search
Farscape - S01E09 - DNA Mad Scientist.avi326.24 Mb torrent search
Farscape - S01E10 - They Have Got A Secret.avi327.45 Mb torrent search
Farscape - S01E11 - Til The Blood Runs Clear.avi326.1 Mb torrent search
Farscape - S01E12 - The Flax.avi324.09 Mb torrent search
Farscape - S01E13 - Rhapsody In Blue.avi324.4 Mb torrent search
Farscape - S01E14 - Jeremiah Crichton.avi327.88 Mb torrent search
Farscape - S01E15 - Durka Returns.avi324.57 Mb torrent search
Farscape - S01E16 - A Human Reaction.avi325.44 Mb torrent search
Farscape - S01E17 - Through The Looking Glass.avi322.6 Mb torrent search
Farscape - S01E18 - A Bugs Life.avi326.06 Mb torrent search
Farscape - S01E19 - Nerve.avi323.96 Mb torrent search
Farscape - S01E20 - The Hidden Memory.avi326.52 Mb torrent search
Farscape - S01E21 - Bone To Be Wild.avi326.48 Mb torrent search
Farscape - S01E22 - Family Ties.avi323.91 Mb torrent search
README.TXT197 bytes torrent search

Farscape - Season 1-4+The.Peacekeeper.Wars.Part.1&2
 Farscape - Season 2 - Episodes 1-11
Farscape - S02E01 - Mind The Baby.avi324.45 Mb torrent search
Farscape - S02E02 - Vitas Mortis.avi34 bytes torrent search

Sample info:
Duration: 01:28:14.85, start: 0.000000, bitrate: 1105 kb/s
Stream #0.0: Video: mpeg4 (Advanced Simple Profile), yuv420p, 624x352 [PAR 1:1 DAR 39:22], 24.98 tbr, 24.98 tbn, 24.98 tbc
Stream #0.1: Audio: mp3, 48000 Hz, stereo, s16, 121 kb/s
screenshots
Farscape Season 1 4 torrent screenshot 7799DCF8D952B15867CF05AC1131147B6FE899CD Farscape Season 1 4  torrent screenshot 7799dcf8d952b15867cf05ac1131147b6fe899cd torrent Farscape Season 1 4
Images are auto generated please report any inapropriate images
you may be interested in these torrents seeders leechers size found
Farscape Season 2     9 2 7.53 Gb 4 years ago

Farscape [2x01] - Mind the Baby.avi Farscape [2x01] - Mind the Baby.srt Farscape [2x02] - Vitas Mortis.


Farscape Season 3     6 1 7.52 Gb 4 years ago

Farscape [3x01] - Season of Death - AMC -.avi Farscape [3x01] - Season of Death - AMC -.srt Farsc


Farscape Season 4     4 1 7.52 Gb 4 years ago

Farscape [4x01] - Crichton Kicks.avi Farscape [4x01] - Crichton Kicks.srt Farscape [4x02] - What Was Lo


Farscape Season 1 4 DVDRip     3 2 30.26 Gb 4 years ago

farscape.s01e01.ac3.divx.dv


Farscape complete 3 4 15.96 Gb 3 years ago

Farscape [1x01] - Premiere - airvideo.m4v Farscape [1x02] - I, E.T - airvideo.m4v


Farscape Season 5 final miniserie DVDRip ITA ENG TNT Village 2 0 140.78 Kb 3 years ago

Farscape S05e01.torrent Farscape S05e02.torrent


Farscape Season 1 2 1 4.1 Gb 3 years ago

Farscape [1-03] Exodus From Genesis.m4v Farscape [1-11] Til The Blood Runs Clear.m4v Farscape


Farscape Season 4 2 0 8.88 Gb 3 years ago

Farscape The Peacekeeper Wars CD1.avi Farscape The Peacekeeper Wars CD1.srt 0


Farscape S1 D3+D4 Retail NL Subs TBS 2 2 8.72 Gb 2 years ago

Farscape__Season_1_Discs_3___4_(1999)_R4-[front]-[www.FreeCovers.net].jpg Farscape S1


 

related search cloud

 farscape  season  back  part  wars  peacekeeper  looking  nerve  through  life